summaryrefslogtreecommitdiff
path: root/songs/Joan Jett and the Blackhearts - I Love Rock _N Roll (The Arrows Cover) [GuitarZero132]/notes.chart
blob: 19192d8ab32ae15783a514e0afd60147bd7ddcd1 (plain)
1
2
3
4
5
6
7
8
9
10
11
12
13
14
15
16
17
18
19
20
21
22
23
24
25
26
27
28
29
30
31
32
33
34
35
36
37
38
39
40
41
42
43
44
45
46
47
48
49
50
51
52
53
54
55
56
57
58
59
60
61
62
63
64
65
66
67
68
69
70
71
72
73
74
75
76
77
78
79
80
81
82
83
84
85
86
87
88
89
90
91
92
93
94
95
96
97
98
99
100
101
102
103
104
105
106
107
108
109
110
111
112
113
114
115
116
117
118
119
120
121
122
123
124
125
126
127
128
129
130
131
132
133
134
135
136
137
138
139
140
141
142
143
144
145
146
147
148
149
150
151
152
153
154
155
156
157
158
159
160
161
162
163
164
165
166
167
168
169
170
171
172
173
174
175
176
177
178
179
180
181
182
183
184
185
186
187
188
189
190
191
192
193
194
195
196
197
198
199
200
201
202
203
204
205
206
207
208
209
210
211
212
213
214
215
216
217
218
219
220
221
222
223
224
225
226
227
228
229
230
231
232
233
234
235
236
237
238
239
240
241
242
243
244
245
246
247
248
249
250
251
252
253
254
255
256
257
258
259
260
261
262
263
264
265
266
267
268
269
270
271
272
273
274
275
276
277
278
279
280
281
282
283
284
285
286
287
288
289
290
291
292
293
294
295
296
297
298
299
300
301
302
303
304
305
306
307
308
309
310
311
312
313
314
315
316
317
318
319
320
321
322
323
324
325
326
327
328
329
330
331
332
333
334
335
336
337
338
339
340
341
342
343
344
345
346
347
348
349
350
351
352
353
354
355
356
357
358
359
360
361
362
363
364
365
366
367
368
369
370
371
372
373
374
375
376
377
378
379
380
381
382
383
384
385
386
387
388
389
390
391
392
393
394
395
396
397
398
399
400
401
402
403
404
405
406
407
408
409
410
411
412
413
414
415
416
417
418
419
420
421
422
423
424
425
426
427
428
429
430
431
432
433
434
435
436
437
438
439
440
441
442
443
444
445
446
447
448
449
450
451
452
453
454
455
456
457
458
459
460
461
462
463
464
465
466
467
468
469
470
471
472
473
474
475
476
477
478
479
480
481
482
483
484
485
486
487
488
489
490
491
492
493
494
495
496
497
498
499
500
501
502
503
504
505
506
507
508
509
510
511
512
513
514
515
516
517
518
519
520
521
522
523
524
525
526
527
528
529
530
531
532
533
534
535
536
537
538
539
540
541
542
543
544
545
546
547
548
549
550
551
552
553
554
555
556
557
558
559
560
561
562
563
564
565
566
567
568
569
570
571
572
573
574
575
576
577
578
579
580
581
582
583
584
585
586
587
588
589
590
591
592
593
594
595
596
597
598
599
600
601
602
603
604
605
606
607
608
609
610
611
612
613
614
615
616
617
618
619
620
621
622
623
624
625
626
627
628
629
630
631
632
633
634
635
636
637
638
639
640
641
642
643
644
645
646
647
648
649
650
651
652
653
654
655
656
657
658
659
660
661
662
663
664
665
666
667
668
669
670
671
672
673
674
675
676
677
678
679
680
681
682
683
684
685
686
687
688
689
690
691
692
693
694
695
696
697
698
699
700
701
702
703
704
705
706
707
708
709
710
711
712
713
714
715
716
717
718
719
720
721
722
723
724
725
726
727
728
729
730
731
732
733
734
735
736
737
738
739
740
741
742
743
744
745
746
747
748
749
750
751
752
753
754
755
756
757
758
759
760
761
762
763
764
765
766
767
768
769
770
771
772
773
774
775
776
777
778
779
780
781
782
783
784
785
786
787
788
789
790
791
792
793
794
795
796
797
798
799
800
801
802
803
804
805
806
807
808
809
810
811
812
813
814
815
816
817
818
819
820
821
822
823
824
825
826
827
828
829
830
831
832
833
834
835
836
837
838
839
840
841
842
843
844
845
846
847
848
849
850
851
852
853
854
855
856
857
858
859
860
861
862
863
864
865
866
867
868
869
870
871
872
873
874
875
876
877
878
879
880
881
882
883
884
885
886
887
888
889
890
891
892
893
894
895
896
897
898
899
900
901
902
903
904
905
906
907
908
909
910
911
912
913
914
915
916
917
918
919
920
921
922
923
924
925
926
927
928
929
930
931
932
933
934
935
936
937
938
939
940
941
942
943
944
945
946
947
948
949
950
951
952
953
954
955
956
957
958
959
960
961
962
963
964
965
966
967
968
969
970
971
972
973
974
975
976
977
978
979
980
981
982
983
984
985
986
987
988
989
990
991
992
993
994
995
996
997
998
999
1000
1001
1002
1003
1004
1005
1006
1007
1008
1009
1010
1011
1012
1013
1014
1015
1016
1017
1018
1019
1020
1021
1022
1023
1024
1025
1026
1027
1028
1029
1030
1031
1032
1033
1034
1035
1036
1037
1038
1039
1040
1041
1042
1043
1044
1045
1046
1047
1048
1049
1050
1051
1052
1053
1054
1055
1056
1057
1058
1059
1060
1061
1062
1063
1064
1065
1066
1067
1068
1069
1070
1071
1072
1073
1074
1075
1076
1077
1078
1079
1080
1081
1082
1083
1084
1085
1086
1087
1088
1089
1090
1091
1092
1093
1094
1095
1096
1097
1098
1099
1100
1101
1102
1103
1104
1105
1106
1107
1108
1109
1110
1111
1112
1113
1114
1115
1116
1117
1118
1119
1120
1121
1122
1123
1124
1125
1126
1127
1128
1129
1130
1131
1132
1133
1134
1135
1136
1137
1138
1139
1140
1141
1142
1143
1144
1145
1146
1147
1148
1149
1150
1151
1152
1153
1154
1155
1156
1157
1158
1159
1160
1161
1162
1163
1164
1165
1166
1167
1168
1169
1170
1171
1172
1173
1174
1175
1176
1177
1178
1179
1180
1181
1182
1183
1184
1185
1186
1187
1188
1189
1190
1191
1192
1193
1194
1195
1196
1197
1198
1199
1200
1201
1202
1203
1204
1205
1206
1207
1208
1209
1210
1211
1212
1213
1214
1215
1216
1217
1218
1219
1220
1221
1222
1223
1224
1225
1226
1227
1228
1229
1230
1231
1232
1233
1234
1235
1236
1237
1238
1239
1240
1241
1242
1243
1244
1245
1246
1247
1248
1249
1250
1251
1252
1253
1254
1255
1256
1257
1258
1259
1260
1261
1262
1263
1264
1265
1266
1267
1268
1269
1270
1271
1272
1273
1274
1275
1276
1277
1278
1279
1280
1281
1282
1283
1284
1285
1286
1287
1288
1289
1290
1291
1292
1293
1294
1295
1296
1297
1298
1299
1300
1301
1302
1303
1304
1305
1306
1307
1308
1309
1310
1311
1312
1313
1314
1315
1316
1317
1318
1319
1320
1321
1322
1323
1324
1325
1326
1327
1328
1329
1330
1331
1332
1333
1334
1335
1336
1337
1338
1339
1340
1341
1342
1343
1344
1345
1346
1347
1348
1349
1350
1351
1352
1353
1354
1355
1356
1357
1358
1359
1360
1361
1362
1363
1364
1365
1366
1367
1368
1369
1370
1371
1372
1373
1374
1375
1376
1377
1378
1379
1380
1381
1382
1383
1384
1385
1386
1387
1388
1389
1390
1391
1392
1393
1394
1395
1396
1397
1398
1399
1400
1401
1402
1403
1404
1405
1406
1407
1408
1409
1410
1411
1412
1413
1414
1415
1416
1417
1418
1419
1420
1421
1422
1423
1424
1425
1426
1427
1428
1429
1430
1431
1432
1433
1434
1435
1436
1437
1438
1439
1440
1441
1442
1443
1444
1445
1446
1447
1448
1449
1450
1451
1452
1453
1454
1455
1456
1457
1458
1459
1460
1461
1462
1463
1464
1465
1466
1467
1468
1469
1470
1471
1472
1473
1474
1475
1476
1477
1478
1479
1480
1481
1482
1483
1484
1485
1486
1487
1488
1489
1490
1491
1492
1493
1494
1495
1496
1497
1498
1499
1500
1501
1502
1503
1504
1505
1506
1507
1508
1509
1510
1511
1512
1513
1514
1515
1516
1517
1518
1519
1520
1521
1522
1523
1524
1525
1526
1527
1528
1529
1530
1531
1532
1533
1534
1535
1536
1537
1538
1539
1540
1541
1542
1543
1544
1545
1546
1547
1548
1549
1550
1551
1552
1553
1554
1555
1556
1557
1558
1559
1560
1561
1562
1563
1564
1565
1566
1567
1568
1569
1570
1571
1572
1573
1574
1575
1576
1577
1578
1579
1580
1581
1582
1583
1584
1585
1586
1587
1588
1589
1590
1591
1592
1593
1594
1595
1596
1597
1598
1599
1600
1601
1602
1603
1604
1605
1606
1607
1608
1609
1610
1611
1612
1613
1614
1615
1616
1617
1618
1619
1620
1621
1622
1623
1624
1625
1626
1627
1628
1629
1630
1631
1632
1633
1634
1635
1636
1637
1638
1639
1640
1641
1642
1643
1644
1645
1646
1647
1648
1649
1650
1651
1652
1653
1654
1655
1656
1657
1658
1659
1660
1661
1662
1663
1664
1665
1666
1667
1668
1669
1670
1671
1672
1673
1674
1675
1676
1677
1678
1679
1680
1681
1682
1683
1684
1685
1686
1687
1688
1689
1690
1691
1692
1693
1694
1695
1696
1697
1698
1699
1700
1701
1702
1703
1704
1705
1706
1707
1708
1709
1710
1711
1712
1713
1714
1715
1716
1717
1718
1719
1720
1721
1722
1723
1724
1725
1726
1727
1728
1729
1730
1731
1732
1733
1734
1735
1736
1737
1738
1739
1740
1741
1742
1743
1744
1745
1746
1747
1748
1749
1750
1751
1752
1753
1754
1755
1756
1757
1758
1759
1760
1761
1762
1763
1764
1765
1766
1767
1768
1769
1770
1771
1772
1773
1774
1775
1776
1777
1778
1779
1780
1781
1782
1783
1784
1785
1786
1787
1788
1789
1790
1791
1792
1793
1794
1795
1796
1797
1798
1799
1800
1801
1802
1803
1804
1805
1806
1807
1808
1809
1810
1811
1812
1813
1814
1815
1816
1817
1818
1819
1820
1821
1822
1823
1824
1825
1826
1827
1828
1829
1830
1831
1832
1833
1834
1835
1836
1837
1838
1839
1840
1841
1842
1843
1844
1845
1846
1847
1848
1849
1850
1851
1852
1853
1854
1855
1856
1857
1858
1859
1860
1861
1862
1863
1864
1865
1866
1867
1868
1869
1870
1871
1872
1873
1874
1875
1876
1877
1878
1879
1880
1881
1882
1883
1884
1885
1886
1887
1888
1889
1890
1891
1892
1893
1894
1895
1896
1897
1898
1899
1900
1901
1902
1903
1904
1905
1906
1907
1908
1909
1910
1911
1912
1913
1914
1915
1916
1917
1918
1919
1920
1921
1922
1923
1924
1925
1926
1927
1928
1929
1930
1931
1932
1933
1934
1935
1936
1937
1938
1939
1940
1941
1942
1943
1944
1945
1946
1947
1948
1949
1950
1951
1952
1953
1954
1955
1956
1957
1958
1959
1960
1961
1962
1963
1964
1965
1966
1967
1968
1969
1970
[Song]
{
  Name = "I Love Rock 'N Roll"
  Artist = "Joan Jett and the Blackhearts"
  Charter = "GuitarZero132"
  Album = "I Love Rock 'N Roll"
  Year = ", 1975"
  Offset = 0
  Resolution = 192
  Player2 = bass
  Difficulty = 0
  PreviewStart = 0
  PreviewEnd = 0
  Genre = "Rock"
  MediaType = "cd"
  MusicStream = "song.ogg"
}
[SyncTrack]
{
  0 = TS 4
  0 = B 95000
  1536 = B 95000
  2112 = B 96000
  2496 = B 99000
  3840 = TS 3
  4416 = TS 4
  4608 = B 97000
  4992 = B 96000
  5184 = B 97000
  6528 = B 95000
  8448 = B 96000
  9024 = TS 6
  9216 = B 98000
  9792 = B 96000
  9984 = B 95000
  10176 = TS 4
  10176 = B 92000
  10944 = B 94000
  11520 = B 93000
  12288 = B 95000
  12672 = B 94000
  14016 = B 95000
  14784 = B 96000
  15936 = B 97000
  16320 = TS 3
  16896 = TS 4
  16896 = B 93000
  17664 = B 95000
  18240 = B 94000
  18432 = B 95000
  19584 = B 96000
  19776 = B 95000
  21504 = TS 6
  21504 = B 97000
  22080 = B 91000
  22272 = B 94000
  22656 = TS 4
  22656 = B 90000
  23040 = B 91000
  23808 = B 93000
  24384 = B 92000
  25728 = B 93000
  26112 = B 95000
  27840 = B 96000
  28800 = TS 3
  29376 = TS 4
  29568 = B 94000
  30912 = TS 4
  30912 = B 95000
  33984 = TS 6
  34752 = B 94000
  35136 = TS 4
  35136 = B 91000
  36480 = B 93000
  38784 = B 93000
  39360 = B 94000
  40320 = B 93000
  42048 = B 95000
  43008 = B 97000
  44352 = TS 3
  44928 = TS 4
  44928 = B 96000
  46080 = B 98000
  46464 = B 97000
  47232 = TS 3
  47808 = TS 4
  48576 = B 98000
  49344 = B 96000
  50112 = TS 3
  50112 = B 97000
  50688 = TS 4
  50880 = B 95000
  51264 = B 97000
  52800 = B 98000
  52992 = TS 3
  53568 = TS 4
}
[Events]
{
  1152 = E "section Intro"
  5952 = E "section Verse 1"
  10944 = E "section Pre-Chorus 1"
  14016 = E "section Chorus 1"
  18432 = E "section Verse 2"
  22656 = E "section Pre-Chorus 2"
  26496 = E "section Chorus 2"
  30912 = E "section Guitar Solo"
  35136 = E "section Pre-Chorus 3"
  38976 = E "section Chorus 3A"
  42048 = E "section Chorus 3B"
  47808 = E "section Chorus 3C"
}
[ExpertSingle]
{
  1536 = N 0 0
  1536 = N 2 0
  1536 = N 3 0
  1632 = N 0 0
  1632 = N 2 0
  1632 = N 3 0
  1920 = N 0 0
  1920 = N 2 0
  1920 = N 3 0
  2016 = N 0 0
  2016 = N 2 0
  2016 = N 3 0
  2160 = N 1 120
  2304 = N 1 0
  2304 = N 2 0
  2400 = N 1 0
  2400 = N 2 0
  2688 = N 1 0
  2688 = N 3 0
  2784 = N 1 0
  2784 = N 3 0
  2928 = N 1 120
  3072 = N 0 0
  3072 = N 2 0
  3072 = N 3 0
  3168 = N 0 0
  3168 = N 2 0
  3168 = N 3 0
  3456 = N 0 0
  3456 = N 2 0
  3456 = N 3 0
  3552 = N 0 0
  3552 = N 2 0
  3552 = N 3 0
  3696 = N 1 120
  3840 = N 1 0
  3840 = N 2 0
  3840 = S 2 768
  3936 = N 1 0
  3936 = N 2 0
  4224 = N 1 0
  4224 = N 3 0
  4320 = N 0 0
  4416 = N 0 0
  4416 = N 2 0
  4416 = N 3 0
  4512 = N 0 0
  4512 = N 2 0
  4512 = N 3 0
  5184 = N 0 0
  5184 = N 2 0
  5184 = N 3 0
  5280 = N 0 0
  5280 = N 2 0
  5280 = N 3 0
  5568 = N 3 0
  5592 = N 4 0
  5616 = N 3 0
  5664 = N 2 0
  5760 = N 1 0
  5808 = N 0 120
  5952 = N 0 0
  5952 = N 2 0
  5952 = N 3 0
  6048 = N 0 0
  6048 = N 2 0
  6048 = N 3 0
  6720 = N 0 0
  6720 = N 2 0
  6720 = N 3 0
  6816 = N 0 0
  6816 = N 2 0
  6816 = N 3 0
  7104 = N 3 0
  7128 = N 4 0
  7152 = N 3 0
  7200 = N 2 0
  7296 = N 1 0
  7344 = N 0 120
  7488 = N 0 0
  7488 = N 2 0
  7488 = N 3 0
  7584 = N 0 0
  7584 = N 2 0
  7584 = N 3 0
  8256 = N 1 0
  8256 = N 3 0
  8352 = N 1 0
  8352 = N 3 0
  8640 = N 3 0
  8664 = N 4 0
  8688 = N 3 0
  8736 = N 2 0
  8832 = N 1 0
  8880 = N 0 120
  9024 = N 1 0
  9024 = N 2 0
  9120 = N 1 0
  9120 = N 2 0
  9408 = N 1 0
  9408 = N 3 0
  9504 = N 1 0
  9504 = N 3 0
  9792 = N 0 0
  9792 = N 2 0
  9792 = N 3 0
  9888 = N 0 0
  9888 = N 2 0
  9888 = N 3 0
  10176 = N 1 1536
  10176 = N 2 1536
  13248 = N 1 0
  13248 = N 2 0
  13248 = S 2 768
  13344 = N 1 0
  13344 = N 2 0
  13440 = N 1 0
  13440 = N 2 0
  13536 = N 1 0
  13536 = N 2 0
  13632 = N 1 0
  13632 = N 2 0
  13728 = N 1 0
  13728 = N 2 0
  13824 = N 1 0
  13824 = N 2 0
  13920 = N 1 0
  13920 = N 2 0
  14016 = N 0 0
  14016 = N 2 0
  14016 = N 3 0
  14112 = N 0 0
  14112 = N 2 0
  14112 = N 3 0
  14400 = N 0 0
  14400 = N 2 0
  14400 = N 3 0
  14496 = N 0 0
  14496 = N 2 0
  14496 = N 3 0
  14640 = N 1 120
  14784 = N 1 0
  14784 = N 2 0
  14880 = N 1 0
  14880 = N 2 0
  15168 = N 1 0
  15168 = N 3 0
  15264 = N 1 0
  15264 = N 3 0
  15552 = N 0 0
  15552 = N 2 0
  15552 = N 3 0
  15648 = N 0 0
  15648 = N 2 0
  15648 = N 3 0
  15936 = N 0 0
  15936 = N 2 0
  15936 = N 3 0
  16032 = N 0 0
  16032 = N 2 0
  16032 = N 3 0
  16176 = N 1 120
  16320 = N 1 0
  16320 = N 2 0
  16416 = N 1 0
  16416 = N 2 0
  16704 = N 1 0
  16704 = N 3 0
  16800 = N 0 0
  16896 = N 0 0
  16896 = N 2 0
  16896 = N 3 0
  16992 = N 0 0
  16992 = N 2 0
  16992 = N 3 0
  17664 = N 0 0
  17664 = N 2 0
  17664 = N 3 0
  17760 = N 0 0
  17760 = N 2 0
  17760 = N 3 0
  18048 = N 3 0
  18072 = N 4 0
  18096 = N 3 0
  18144 = N 2 0
  18240 = N 1 0
  18288 = N 0 120
  18432 = N 0 0
  18432 = N 2 0
  18432 = N 3 0
  18528 = N 0 0
  18528 = N 2 0
  18528 = N 3 0
  19200 = N 0 0
  19200 = N 2 0
  19200 = N 3 0
  19296 = N 0 0
  19296 = N 2 0
  19296 = N 3 0
  19584 = N 3 0
  19608 = N 4 0
  19632 = N 3 0
  19680 = N 2 0
  19776 = N 1 0
  19824 = N 0 120
  19968 = N 0 0
  19968 = N 2 0
  19968 = N 3 0
  20064 = N 0 0
  20064 = N 2 0
  20064 = N 3 0
  20736 = N 1 0
  20736 = N 3 0
  20832 = N 1 0
  20832 = N 3 0
  21120 = N 3 0
  21144 = N 4 0
  21168 = N 3 0
  21216 = N 2 0
  21312 = N 1 0
  21360 = N 0 120
  21504 = N 1 0
  21504 = N 2 0
  21504 = S 2 1344
  21600 = N 1 0
  21600 = N 2 0
  21888 = N 1 0
  21888 = N 3 0
  21984 = N 1 0
  21984 = N 3 0
  22272 = N 0 0
  22272 = N 2 0
  22272 = N 3 0
  22368 = N 0 0
  22368 = N 2 0
  22368 = N 3 0
  22656 = N 1 312
  22656 = N 2 312
  22992 = N 0 0
  22992 = N 1 0
  22992 = N 5 0
  23040 = N 1 120
  23040 = N 2 120
  23040 = N 5 0
  23184 = N 0 0
  23184 = N 1 0
  23184 = N 5 0
  23232 = N 1 960
  23232 = N 2 960
  23232 = N 5 0
  25728 = N 1 0
  25728 = N 2 0
  25824 = N 1 0
  25824 = N 2 0
  25920 = N 1 0
  25920 = N 2 0
  26016 = N 1 0
  26016 = N 2 0
  26112 = N 1 0
  26112 = N 2 0
  26208 = N 1 0
  26208 = N 2 0
  26304 = N 1 0
  26304 = N 2 0
  26400 = N 1 0
  26400 = N 2 0
  26496 = N 0 0
  26496 = N 2 0
  26496 = N 3 0
  26592 = N 0 0
  26592 = N 2 0
  26592 = N 3 0
  26880 = N 0 0
  26880 = N 2 0
  26880 = N 3 0
  26976 = N 0 0
  26976 = N 2 0
  26976 = N 3 0
  27120 = N 1 120
  27264 = N 1 0
  27264 = N 2 0
  27360 = N 1 0
  27360 = N 2 0
  27648 = N 1 0
  27648 = N 3 0
  27744 = N 1 0
  27744 = N 3 0
  28032 = N 0 0
  28032 = N 2 0
  28032 = N 3 0
  28128 = N 0 0
  28128 = N 2 0
  28128 = N 3 0
  28416 = N 0 0
  28416 = N 2 0
  28416 = N 3 0
  28512 = N 0 0
  28512 = N 2 0
  28512 = N 3 0
  28656 = N 1 120
  28800 = N 1 0
  28800 = N 2 0
  28896 = N 1 0
  28896 = N 2 0
  29184 = N 1 0
  29184 = N 3 0
  29280 = N 0 0
  29376 = N 0 0
  29376 = N 2 0
  29376 = N 3 0
  29472 = N 0 0
  29472 = N 2 0
  29472 = N 3 0
  30144 = N 0 0
  30144 = N 2 0
  30144 = N 3 0
  30240 = N 0 0
  30240 = N 2 0
  30240 = N 3 0
  30528 = N 3 0
  30552 = N 4 0
  30576 = N 3 0
  30624 = N 2 0
  30720 = N 1 0
  30768 = N 0 120
  30912 = N 7 288
  30912 = E solo
  31296 = N 0 0
  31320 = N 1 0
  31392 = N 0 0
  31416 = N 1 0
  31440 = N 0 0
  31488 = N 7 144
  31488 = N 5 0
  31680 = N 1 120
  31680 = N 2 120
  31680 = N 3 120
  31824 = N 0 72
  31824 = N 1 72
  31824 = N 2 72
  31824 = N 5 0
  31920 = N 1 216
  31920 = N 2 216
  31920 = N 3 216
  31920 = N 5 0
  32160 = N 0 0
  32184 = N 1 0
  32256 = N 2 0
  32352 = N 3 0
  32448 = N 1 0
  32544 = N 2 0
  32544 = N 5 0
  32640 = N 4 0
  32736 = N 1 0
  32832 = N 2 0
  32832 = N 5 0
  32928 = N 3 0
  33024 = N 3 0
  33024 = N 4 0
  33072 = N 3 0
  33120 = N 2 0
  33168 = N 1 0
  33216 = N 1 0
  33216 = N 3 0
  33264 = N 2 216
  33264 = N 3 216
  33264 = N 5 0
  33504 = N 0 0
  33552 = N 0 0
  33600 = N 0 0
  33648 = N 1 0
  33696 = N 2 0
  33792 = N 4 0
  33888 = N 3 0
  33888 = S 2 1344
  33936 = N 3 0
  33984 = N 3 0
  34032 = N 2 0
  34080 = N 2 0
  34128 = N 2 0
  34176 = N 2 0
  34224 = N 1 0
  34272 = N 1 0
  34320 = N 1 0
  34368 = N 1 0
  34416 = N 0 0
  34464 = N 0 0
  34512 = N 0 0
  34560 = N 0 0
  34608 = N 4 0
  34656 = N 4 0
  34704 = N 4 0
  34752 = N 4 0
  34800 = N 3 0
  34848 = N 3 0
  34896 = N 3 0
  34944 = N 3 0
  34992 = N 2 0
  35040 = N 1 0
  35088 = N 0 0
  35136 = N 1 312
  35136 = N 2 312
  35328 = E soloend
  35472 = N 0 0
  35472 = N 1 0
  35472 = N 5 0
  35520 = N 1 1344
  35520 = N 2 1344
  35520 = N 5 0
  42048 = N 0 0
  42048 = N 2 0
  42048 = N 3 0
  42144 = N 0 0
  42144 = N 2 0
  42144 = N 3 0
  42432 = N 0 0
  42432 = N 2 0
  42432 = N 3 0
  42528 = N 0 0
  42528 = N 2 0
  42528 = N 3 0
  42672 = N 1 120
  42816 = N 1 0
  42816 = N 2 0
  42912 = N 1 0
  42912 = N 2 0
  43200 = N 1 0
  43200 = N 3 0
  43296 = N 1 0
  43296 = N 3 0
  43584 = N 0 0
  43584 = N 2 0
  43584 = N 3 0
  43680 = N 0 0
  43680 = N 2 0
  43680 = N 3 0
  43968 = N 0 0
  43968 = N 2 0
  43968 = N 3 0
  44064 = N 0 0
  44064 = N 2 0
  44064 = N 3 0
  44208 = N 1 120
  44352 = N 1 0
  44352 = N 2 0
  44448 = N 1 0
  44448 = N 2 0
  44736 = N 1 0
  44736 = N 3 0
  44832 = N 0 0
  44928 = N 0 0
  44928 = N 2 0
  44928 = N 3 0
  45024 = N 0 0
  45024 = N 2 0
  45024 = N 3 0
  45312 = N 0 0
  45312 = N 2 0
  45312 = N 3 0
  45408 = N 0 0
  45408 = N 2 0
  45408 = N 3 0
  45552 = N 1 120
  45696 = N 1 0
  45696 = N 2 0
  45696 = S 2 960
  45792 = N 1 0
  45792 = N 2 0
  46080 = N 1 0
  46080 = N 3 0
  46176 = N 1 0
  46176 = N 3 0
  46464 = N 0 0
  46464 = N 2 0
  46464 = N 3 0
  46560 = N 0 0
  46560 = N 2 0
  46560 = N 3 0
  46848 = N 0 0
  46848 = N 2 0
  46848 = N 3 0
  46944 = N 0 0
  46944 = N 2 0
  46944 = N 3 0
  47088 = N 1 120
  47232 = N 1 0
  47232 = N 2 0
  47328 = N 1 0
  47328 = N 2 0
  47616 = N 1 0
  47616 = N 3 0
  47712 = N 0 0
  47808 = N 2 0
  47808 = N 4 0
  47856 = N 2 0
  47856 = N 4 0
  47904 = N 2 0
  47904 = N 4 0
  47952 = N 2 0
  47952 = N 4 0
  48000 = N 2 0
  48000 = N 4 0
  48048 = N 2 0
  48048 = N 4 0
  48096 = N 2 0
  48096 = N 4 0
  48144 = N 2 0
  48144 = N 4 0
  48192 = N 2 0
  48192 = N 4 0
  48240 = N 2 0
  48240 = N 4 0
  48288 = N 2 0
  48288 = N 4 0
  48336 = N 2 0
  48336 = N 4 0
  48384 = N 2 0
  48384 = N 4 0
  48432 = N 2 0
  48432 = N 4 0
  48480 = N 2 0
  48480 = N 4 0
  48528 = N 2 0
  48528 = N 4 0
  48576 = N 2 0
  48576 = N 3 0
  48624 = N 2 0
  48624 = N 4 0
  48624 = N 5 0
  48672 = N 2 0
  48672 = N 4 0
  48720 = N 2 0
  48720 = N 4 0
  48768 = N 2 0
  48768 = N 4 0
  48816 = N 2 0
  48816 = N 4 0
  48864 = N 2 0
  48864 = N 4 0
  48912 = N 2 0
  48912 = N 4 0
  48960 = N 2 0
  48960 = N 4 0
  49008 = N 2 0
  49008 = N 4 0
  49056 = N 2 0
  49056 = N 4 0
  49104 = N 2 0
  49104 = N 4 0
  49152 = N 2 0
  49152 = N 4 0
  49200 = N 2 0
  49200 = N 4 0
  49248 = N 2 0
  49248 = N 4 0
  49296 = N 2 0
  49296 = N 4 0
  49344 = N 2 0
  49344 = N 3 0
  49392 = N 2 0
  49392 = N 4 0
  49392 = N 5 0
  49440 = N 2 0
  49440 = N 4 0
  49488 = N 2 0
  49488 = N 4 0
  49536 = N 2 0
  49536 = N 4 0
  49584 = N 2 0
  49584 = N 4 0
  49632 = N 2 0
  49632 = N 4 0
  49680 = N 2 0
  49680 = N 4 0
  49728 = N 2 0
  49728 = N 4 0
  49776 = N 2 0
  49776 = N 4 0
  49824 = N 2 0
  49824 = N 4 0
  49872 = N 2 0
  49872 = N 4 0
  49920 = N 2 0
  49920 = N 4 0
  49968 = N 2 0
  49968 = N 4 0
  50016 = N 2 0
  50016 = N 4 0
  50064 = N 2 0
  50064 = N 4 0
  50112 = N 2 0
  50112 = N 3 0
  50160 = N 2 0
  50160 = N 4 0
  50160 = N 5 0
  50208 = N 2 0
  50208 = N 4 0
  50256 = N 2 0
  50256 = N 4 0
  50304 = N 2 0
  50304 = N 4 0
  50352 = N 2 0
  50352 = N 4 0
  50400 = N 2 0
  50400 = N 4 0
  50448 = N 2 0
  50448 = N 4 0
  50496 = N 2 0
  50496 = N 4 0
  50544 = N 2 0
  50544 = N 4 0
  50592 = N 2 0
  50592 = N 4 0
  50640 = N 2 0
  50640 = N 4 0
  50688 = N 2 0
  50688 = N 4 0
  50736 = N 2 0
  50736 = N 4 0
  50784 = N 2 0
  50784 = N 4 0
  50832 = N 2 0
  50832 = N 4 0
  50880 = N 2 0
  50880 = N 4 0
  50928 = N 2 0
  50928 = N 4 0
  50976 = N 2 0
  50976 = N 4 0
  51024 = N 2 0
  51024 = N 4 0
  51072 = N 2 0
  51072 = N 4 0
  51120 = N 2 0
  51120 = N 4 0
  51168 = N 2 0
  51168 = N 4 0
  51216 = N 2 0
  51216 = N 4 0
  51264 = N 2 0
  51264 = N 4 0
  51312 = N 2 0
  51312 = N 4 0
  51360 = N 2 0
  51360 = N 4 0
  51408 = N 2 0
  51408 = N 4 0
  51456 = N 2 0
  51456 = N 3 0
  51504 = N 2 0
  51504 = N 4 0
  51504 = N 5 0
  51552 = N 2 0
  51552 = N 4 0
  51600 = N 2 0
  51600 = N 4 0
  51648 = N 2 0
  51648 = N 4 0
  51696 = N 2 0
  51696 = N 4 0
  51744 = N 2 0
  51744 = N 4 0
  51792 = N 2 0
  51792 = N 4 0
  51840 = N 2 0
  51840 = N 4 0
  51888 = N 2 0
  51888 = N 4 0
  51936 = N 2 0
  51936 = N 4 0
  51984 = N 2 0
  51984 = N 4 0
  52032 = N 2 0
  52032 = N 4 0
  52080 = N 2 0
  52080 = N 4 0
  52128 = N 2 0
  52128 = N 4 0
  52176 = N 2 0
  52176 = N 4 0
  52224 = N 2 0
  52224 = N 3 0
  52272 = N 2 0
  52272 = N 4 0
  52272 = N 5 0
  52320 = N 2 0
  52320 = N 4 0
  52368 = N 2 0
  52368 = N 4 0
  52416 = N 2 0
  52416 = N 4 0
  52464 = N 2 0
  52464 = N 4 0
  52512 = N 2 0
  52512 = N 4 0
  52560 = N 2 0
  52560 = N 4 0
  52608 = N 2 0
  52608 = N 4 0
  52656 = N 2 0
  52656 = N 4 0
  52704 = N 2 0
  52704 = N 4 0
  52752 = N 2 0
  52752 = N 4 0
  52800 = N 2 0
  52800 = N 4 0
  52848 = N 2 0
  52848 = N 4 0
  52896 = N 2 0
  52896 = N 4 0
  52944 = N 2 0
  52944 = N 4 0
  52992 = N 2 0
  52992 = N 3 0
  53040 = N 2 0
  53040 = N 4 0
  53040 = N 5 0
  53088 = N 2 0
  53088 = N 4 0
  53136 = N 2 0
  53136 = N 4 0
  53184 = N 2 0
  53184 = N 4 0
  53232 = N 2 0
  53232 = N 4 0
  53280 = N 2 0
  53280 = N 4 0
  53328 = N 2 0
  53328 = N 4 0
  53376 = N 2 0
  53376 = N 4 0
  53424 = N 2 0
  53424 = N 4 0
  53472 = N 7 0
  53472 = N 5 0
  53520 = N 7 0
  53568 = N 0 192
  53568 = N 2 192
  53568 = N 3 192
}
[HardSingle]
{
  1536 = N 0 0
  1536 = N 2 0
  1632 = N 0 0
  1632 = N 2 0
  1920 = N 0 0
  1920 = N 2 0
  2016 = N 0 0
  2016 = N 2 0
  2160 = N 1 120
  2304 = N 1 0
  2304 = N 2 0
  2400 = N 1 0
  2400 = N 2 0
  2688 = N 1 0
  2688 = N 3 0
  2784 = N 1 0
  2784 = N 3 0
  2928 = N 1 120
  3072 = N 0 0
  3072 = N 2 0
  3168 = N 0 0
  3168 = N 2 0
  3456 = N 0 0
  3456 = N 2 0
  3552 = N 0 0
  3552 = N 2 0
  3696 = N 1 120
  3840 = N 1 0
  3840 = N 2 0
  3840 = S 2 768
  3936 = N 1 0
  3936 = N 2 0
  4224 = N 1 0
  4224 = N 3 0
  4416 = N 0 0
  4416 = N 2 0
  4512 = N 0 0
  4512 = N 2 0
  5184 = N 0 0
  5184 = N 2 0
  5280 = N 0 0
  5280 = N 2 0
  5568 = N 4 0
  5616 = N 3 0
  5664 = N 2 0
  5760 = N 1 0
  5808 = N 0 120
  5952 = N 0 0
  5952 = N 2 0
  6048 = N 0 0
  6048 = N 2 0
  6720 = N 0 0
  6720 = N 2 0
  6816 = N 0 0
  6816 = N 2 0
  7104 = N 4 0
  7152 = N 3 0
  7200 = N 2 0
  7296 = N 1 0
  7344 = N 0 120
  7488 = N 0 0
  7488 = N 2 0
  7584 = N 0 0
  7584 = N 2 0
  8256 = N 1 0
  8256 = N 3 0
  8352 = N 1 0
  8352 = N 3 0
  8640 = N 4 0
  8688 = N 3 0
  8736 = N 2 0
  8832 = N 1 0
  8880 = N 0 120
  9024 = N 1 0
  9024 = N 2 0
  9120 = N 1 0
  9120 = N 2 0
  9408 = N 1 0
  9408 = N 3 0
  9504 = N 1 0
  9504 = N 3 0
  9792 = N 0 0
  9792 = N 2 0
  9888 = N 0 0
  9888 = N 2 0
  10176 = N 1 1536
  10176 = N 2 1536
  13248 = N 1 0
  13248 = N 2 0
  13248 = S 2 768
  13344 = N 1 0
  13344 = N 2 0
  13440 = N 1 0
  13440 = N 2 0
  13536 = N 1 0
  13536 = N 2 0
  13632 = N 1 0
  13632 = N 2 0
  13728 = N 1 0
  13728 = N 2 0
  13824 = N 1 0
  13824 = N 2 0
  13920 = N 1 0
  13920 = N 2 0
  14016 = N 0 0
  14016 = N 2 0
  14112 = N 0 0
  14112 = N 2 0
  14400 = N 0 0
  14400 = N 2 0
  14496 = N 0 0
  14496 = N 2 0
  14640 = N 1 120
  14784 = N 1 0
  14784 = N 2 0
  14880 = N 1 0
  14880 = N 2 0
  15168 = N 1 0
  15168 = N 3 0
  15264 = N 1 0
  15264 = N 3 0
  15552 = N 0 0
  15552 = N 2 0
  15648 = N 0 0
  15648 = N 2 0
  15936 = N 0 0
  15936 = N 2 0
  16032 = N 0 0
  16032 = N 2 0
  16176 = N 1 120
  16320 = N 1 0
  16320 = N 2 0
  16416 = N 1 0
  16416 = N 2 0
  16704 = N 1 0
  16704 = N 3 0
  16896 = N 0 0
  16896 = N 2 0
  16992 = N 0 0
  16992 = N 2 0
  17664 = N 0 0
  17664 = N 2 0
  17760 = N 0 0
  17760 = N 2 0
  18048 = N 4 0
  18096 = N 3 0
  18144 = N 2 0
  18240 = N 1 0
  18288 = N 0 120
  18432 = N 0 0
  18432 = N 2 0
  18528 = N 0 0
  18528 = N 2 0
  19200 = N 0 0
  19200 = N 2 0
  19296 = N 0 0
  19296 = N 2 0
  19584 = N 4 0
  19632 = N 3 0
  19680 = N 2 0
  19776 = N 1 0
  19824 = N 0 120
  19968 = N 0 0
  19968 = N 2 0
  20064 = N 0 0
  20064 = N 2 0
  20736 = N 1 0
  20736 = N 3 0
  20832 = N 1 0
  20832 = N 3 0
  21120 = N 4 0
  21168 = N 3 0
  21216 = N 2 0
  21312 = N 1 0
  21360 = N 0 120
  21504 = N 1 0
  21504 = N 2 0
  21504 = S 2 1344
  21600 = N 1 0
  21600 = N 2 0
  21888 = N 1 0
  21888 = N 3 0
  21984 = N 1 0
  21984 = N 3 0
  22272 = N 0 0
  22272 = N 2 0
  22368 = N 0 0
  22368 = N 2 0
  22656 = N 1 312
  22656 = N 2 312
  22992 = N 0 0
  22992 = N 5 0
  23040 = N 1 124
  23184 = N 0 0
  23184 = N 5 0
  23232 = N 1 960
  25728 = N 1 0
  25728 = N 2 0
  25824 = N 1 0
  25824 = N 2 0
  25920 = N 1 0
  25920 = N 2 0
  26016 = N 1 0
  26016 = N 2 0
  26112 = N 1 0
  26112 = N 2 0
  26208 = N 1 0
  26208 = N 2 0
  26304 = N 1 0
  26304 = N 2 0
  26400 = N 1 0
  26400 = N 2 0
  26496 = N 0 0
  26496 = N 2 0
  26592 = N 0 0
  26592 = N 2 0
  26880 = N 0 0
  26880 = N 2 0
  26976 = N 0 0
  26976 = N 2 0
  27120 = N 1 120
  27264 = N 1 0
  27264 = N 2 0
  27360 = N 1 0
  27360 = N 2 0
  27648 = N 1 0
  27648 = N 3 0
  27744 = N 1 0
  27744 = N 3 0
  28032 = N 0 0
  28032 = N 2 0
  28128 = N 0 0
  28128 = N 2 0
  28416 = N 0 0
  28416 = N 2 0
  28512 = N 0 0
  28512 = N 2 0
  28656 = N 1 120
  28800 = N 1 0
  28800 = N 2 0
  28896 = N 1 0
  28896 = N 2 0
  29184 = N 1 0
  29184 = N 3 0
  29376 = N 0 0
  29376 = N 2 0
  29472 = N 0 0
  29472 = N 2 0
  30144 = N 0 0
  30144 = N 2 0
  30240 = N 0 0
  30240 = N 2 0
  30528 = N 4 0
  30576 = N 3 0
  30624 = N 2 0
  30720 = N 1 0
  30768 = N 0 120
  30912 = N 0 288
  30912 = E solo
  31296 = N 2 0
  31392 = N 2 0
  31440 = N 1 0
  31488 = N 0 171
  31680 = N 2 120
  31680 = N 3 120
  31824 = N 1 72
  31824 = N 2 72
  31824 = N 5 0
  31920 = N 2 216
  31920 = N 3 216
  31920 = N 5 0
  32160 = N 1 0
  32256 = N 2 0
  32352 = N 3 0
  32448 = N 1 0
  32544 = N 2 0
  32544 = N 5 0
  32640 = N 4 0
  32736 = N 1 0
  32832 = N 2 0
  32832 = N 5 0
  32928 = N 3 0
  33024 = N 4 0
  33072 = N 3 0
  33120 = N 2 0
  33168 = N 1 0
  33216 = N 2 267
  33216 = N 3 267
  33504 = N 0 0
  33552 = N 0 0
  33600 = N 0 0
  33648 = N 1 0
  33696 = N 2 0
  33792 = N 4 0
  33888 = N 3 0
  33888 = S 2 1344
  33936 = N 3 0
  33984 = N 3 0
  34080 = N 2 0
  34128 = N 2 0
  34176 = N 2 0
  34272 = N 1 0
  34320 = N 1 0
  34368 = N 1 0
  34464 = N 0 0
  34512 = N 0 0
  34560 = N 0 0
  34656 = N 4 0
  34704 = N 4 0
  34752 = N 4 0
  34848 = N 3 0
  34896 = N 3 0
  34944 = N 3 0
  34992 = N 2 0
  35040 = N 1 0
  35136 = N 1 312
  35136 = N 2 312
  35328 = E soloend
  35472 = N 1 0
  35472 = N 5 0
  35520 = N 2 1344
  42048 = N 0 0
  42048 = N 2 0
  42144 = N 0 0
  42144 = N 2 0
  42432 = N 0 0
  42432 = N 2 0
  42528 = N 0 0
  42528 = N 2 0
  42672 = N 1 120
  42816 = N 1 0
  42816 = N 2 0
  42912 = N 1 0
  42912 = N 2 0
  43200 = N 1 0
  43200 = N 3 0
  43296 = N 1 0
  43296 = N 3 0
  43584 = N 0 0
  43584 = N 2 0
  43680 = N 0 0
  43680 = N 2 0
  43968 = N 0 0
  43968 = N 2 0
  44064 = N 0 0
  44064 = N 2 0
  44208 = N 1 120
  44352 = N 1 0
  44352 = N 2 0
  44448 = N 1 0
  44448 = N 2 0
  44736 = N 1 0
  44736 = N 3 0
  44928 = N 0 0
  44928 = N 2 0
  45024 = N 0 0
  45024 = N 2 0
  45312 = N 0 0
  45312 = N 2 0
  45408 = N 0 0
  45408 = N 2 0
  45552 = N 1 120
  45696 = N 1 0
  45696 = N 2 0
  45696 = S 2 960
  45792 = N 1 0
  45792 = N 2 0
  46080 = N 1 0
  46080 = N 3 0
  46176 = N 1 0
  46176 = N 3 0
  46464 = N 0 0
  46464 = N 2 0
  46560 = N 0 0
  46560 = N 2 0
  46848 = N 0 0
  46848 = N 2 0
  46944 = N 0 0
  46944 = N 2 0
  47088 = N 1 120
  47232 = N 1 0
  47232 = N 2 0
  47328 = N 1 0
  47328 = N 2 0
  47616 = N 1 0
  47616 = N 3 0
  47808 = N 2 0
  47808 = N 4 0
  47904 = N 2 0
  47904 = N 4 0
  48000 = N 2 0
  48000 = N 4 0
  48096 = N 2 0
  48096 = N 4 0
  48192 = N 2 0
  48192 = N 4 0
  48288 = N 2 0
  48288 = N 4 0
  48384 = N 2 0
  48384 = N 4 0
  48480 = N 2 0
  48480 = N 4 0
  48576 = N 2 0
  48576 = N 3 0
  48672 = N 2 0
  48672 = N 4 0
  48768 = N 2 0
  48768 = N 4 0
  48864 = N 2 0
  48864 = N 4 0
  48960 = N 2 0
  48960 = N 4 0
  49056 = N 2 0
  49056 = N 4 0
  49152 = N 2 0
  49152 = N 4 0
  49248 = N 2 0
  49248 = N 4 0
  49344 = N 2 0
  49344 = N 3 0
  49440 = N 2 0
  49440 = N 4 0
  49536 = N 2 0
  49536 = N 4 0
  49632 = N 2 0
  49632 = N 4 0
  49728 = N 2 0
  49728 = N 4 0
  49824 = N 2 0
  49824 = N 4 0
  49920 = N 2 0
  49920 = N 4 0
  50016 = N 2 0
  50016 = N 4 0
  50112 = N 2 0
  50112 = N 3 0
  50208 = N 2 0
  50208 = N 4 0
  50304 = N 2 0
  50304 = N 4 0
  50400 = N 2 0
  50400 = N 4 0
  50496 = N 2 0
  50496 = N 4 0
  50592 = N 2 0
  50592 = N 4 0
  50688 = N 2 0
  50688 = N 4 0
  50784 = N 2 0
  50784 = N 4 0
  50880 = N 2 0
  50880 = N 4 0
  50976 = N 2 0
  50976 = N 4 0
  51072 = N 2 0
  51072 = N 4 0
  51168 = N 2 0
  51168 = N 4 0
  51264 = N 2 0
  51264 = N 4 0
  51360 = N 2 0
  51360 = N 4 0
  51456 = N 2 0
  51456 = N 3 0
  51552 = N 2 0
  51552 = N 4 0
  51648 = N 2 0
  51648 = N 4 0
  51744 = N 2 0
  51744 = N 4 0
  51840 = N 2 0
  51840 = N 4 0
  51936 = N 2 0
  51936 = N 4 0
  52032 = N 2 0
  52032 = N 4 0
  52128 = N 2 0
  52128 = N 4 0
  52224 = N 2 0
  52224 = N 3 0
  52320 = N 2 0
  52320 = N 4 0
  52416 = N 2 0
  52416 = N 4 0
  52512 = N 2 0
  52512 = N 4 0
  52608 = N 2 0
  52608 = N 4 0
  52704 = N 2 0
  52704 = N 4 0
  52800 = N 2 0
  52800 = N 4 0
  52896 = N 2 0
  52896 = N 4 0
  52992 = N 2 0
  52992 = N 3 0
  53088 = N 2 0
  53088 = N 4 0
  53184 = N 2 0
  53184 = N 4 0
  53280 = N 2 0
  53280 = N 4 0
  53376 = N 2 0
  53376 = N 4 0
  53568 = N 0 192
  53568 = N 2 192
}
[MediumSingle]
{
  1536 = N 0 0
  1536 = N 2 0
  1632 = N 0 0
  1632 = N 2 0
  1920 = N 0 0
  1920 = N 2 0
  2016 = N 0 0
  2016 = N 2 0
  2160 = N 1 120
  2304 = N 1 0
  2304 = N 2 0
  2400 = N 1 0
  2400 = N 2 0
  2688 = N 1 0
  2688 = N 3 0
  2784 = N 1 0
  2784 = N 3 0
  2928 = N 1 120
  3072 = N 0 0
  3072 = N 2 0
  3168 = N 0 0
  3168 = N 2 0
  3456 = N 0 0
  3456 = N 2 0
  3552 = N 0 0
  3552 = N 2 0
  3696 = N 1 120
  3840 = N 1 0
  3840 = N 2 0
  3840 = S 2 768
  3936 = N 1 0
  3936 = N 2 0
  4224 = N 1 0
  4224 = N 3 0
  4416 = N 0 0
  4416 = N 2 0
  4512 = N 0 0
  4512 = N 2 0
  5184 = N 0 0
  5184 = N 2 0
  5280 = N 0 0
  5280 = N 2 0
  5568 = N 3 0
  5664 = N 2 0
  5760 = N 1 0
  5952 = N 0 0
  5952 = N 2 0
  6048 = N 0 0
  6048 = N 2 0
  6720 = N 0 0
  6720 = N 2 0
  6816 = N 0 0
  6816 = N 2 0
  7104 = N 3 0
  7200 = N 2 0
  7296 = N 1 0
  7488 = N 0 0
  7488 = N 2 0
  7584 = N 0 0
  7584 = N 2 0
  8256 = N 1 0
  8256 = N 3 0
  8352 = N 1 0
  8352 = N 3 0
  8640 = N 3 0
  8736 = N 2 0
  8832 = N 1 0
  9024 = N 1 0
  9024 = N 2 0
  9120 = N 1 0
  9120 = N 2 0
  9408 = N 1 0
  9408 = N 3 0
  9504 = N 1 0
  9504 = N 3 0
  9792 = N 0 0
  9792 = N 2 0
  9888 = N 0 0
  9888 = N 2 0
  10176 = N 1 1536
  10176 = N 2 1536
  13248 = N 1 0
  13248 = N 2 0
  13248 = S 2 768
  13344 = N 1 0
  13344 = N 2 0
  13440 = N 1 0
  13440 = N 2 0
  13536 = N 1 0
  13536 = N 2 0
  13632 = N 1 0
  13632 = N 2 0
  13728 = N 1 0
  13728 = N 2 0
  13824 = N 1 0
  13824 = N 2 0
  14016 = N 0 0
  14016 = N 2 0
  14112 = N 0 0
  14112 = N 2 0
  14400 = N 0 0
  14400 = N 2 0
  14496 = N 0 0
  14496 = N 2 0
  14640 = N 1 120
  14784 = N 1 0
  14784 = N 2 0
  14880 = N 1 0
  14880 = N 2 0
  15168 = N 1 0
  15168 = N 3 0
  15264 = N 1 0
  15264 = N 3 0
  15552 = N 0 0
  15552 = N 2 0
  15648 = N 0 0
  15648 = N 2 0
  15936 = N 0 0
  15936 = N 2 0
  16032 = N 0 0
  16032 = N 2 0
  16176 = N 1 120
  16320 = N 1 0
  16320 = N 2 0
  16416 = N 1 0
  16416 = N 2 0
  16704 = N 1 0
  16704 = N 3 0
  16896 = N 0 0
  16896 = N 2 0
  16992 = N 0 0
  16992 = N 2 0
  17664 = N 0 0
  17664 = N 2 0
  17760 = N 0 0
  17760 = N 2 0
  18048 = N 3 0
  18144 = N 2 0
  18240 = N 1 0
  18432 = N 0 0
  18432 = N 2 0
  18528 = N 0 0
  18528 = N 2 0
  19200 = N 0 0
  19200 = N 2 0
  19296 = N 0 0
  19296 = N 2 0
  19584 = N 3 0
  19680 = N 2 0
  19776 = N 1 0
  19968 = N 0 0
  19968 = N 2 0
  20064 = N 0 0
  20064 = N 2 0
  20736 = N 1 0
  20736 = N 3 0
  20832 = N 1 0
  20832 = N 3 0
  21120 = N 3 0
  21216 = N 2 0
  21312 = N 1 0
  21504 = N 1 0
  21504 = N 2 0
  21504 = S 2 1344
  21600 = N 1 0
  21600 = N 2 0
  21888 = N 1 0
  21888 = N 3 0
  21984 = N 1 0
  21984 = N 3 0
  22272 = N 0 0
  22272 = N 2 0
  22368 = N 0 0
  22368 = N 2 0
  22656 = N 1 1536
  22656 = N 2 1536
  25728 = N 1 0
  25728 = N 2 0
  25824 = N 1 0
  25824 = N 2 0
  25920 = N 1 0
  25920 = N 2 0
  26016 = N 1 0
  26016 = N 2 0
  26112 = N 1 0
  26112 = N 2 0
  26208 = N 1 0
  26208 = N 2 0
  26304 = N 1 0
  26304 = N 2 0
  26496 = N 0 0
  26496 = N 2 0
  26592 = N 0 0
  26592 = N 2 0
  26880 = N 0 0
  26880 = N 2 0
  26976 = N 0 0
  26976 = N 2 0
  27120 = N 1 120
  27264 = N 1 0
  27264 = N 2 0
  27360 = N 1 0
  27360 = N 2 0
  27648 = N 1 0
  27648 = N 3 0
  27744 = N 1 0
  27744 = N 3 0
  28032 = N 0 0
  28032 = N 2 0
  28128 = N 0 0
  28128 = N 2 0
  28416 = N 0 0
  28416 = N 2 0
  28512 = N 0 0
  28512 = N 2 0
  28656 = N 1 120
  28800 = N 1 0
  28800 = N 2 0
  28896 = N 1 0
  28896 = N 2 0
  29184 = N 1 0
  29184 = N 3 0
  29376 = N 0 0
  29376 = N 2 0
  29472 = N 0 0
  29472 = N 2 0
  30144 = N 0 0
  30144 = N 2 0
  30240 = N 0 0
  30240 = N 2 0
  30528 = N 3 0
  30624 = N 2 0
  30720 = N 1 0
  30912 = N 0 288
  30912 = E solo
  31296 = N 1 0
  31392 = N 1 0
  31488 = N 0 171
  31680 = N 2 459
  31680 = N 3 459
  32160 = N 0 0
  32256 = N 1 0
  32352 = N 2 0
  32448 = N 1 171
  32640 = N 3 0
  32736 = N 1 171
  32928 = N 2 0
  33024 = N 3 0
  33120 = N 2 0
  33216 = N 2 267
  33216 = N 3 267
  33504 = N 0 0
  33600 = N 0 0
  33696 = N 1 0
  33792 = N 3 0
  33888 = N 2 0
  33888 = S 2 1344
  33984 = N 2 0
  34080 = N 1 0
  34176 = N 1 0
  34272 = N 0 0
  34368 = N 0 0
  34464 = N 3 0
  34560 = N 3 0
  34656 = N 2 0
  34752 = N 2 0
  34848 = N 1 0
  34944 = N 1 0
  35040 = N 0 0
  35136 = N 1 1728
  35136 = N 2 1728
  35328 = E soloend
  42048 = N 0 0
  42048 = N 2 0
  42144 = N 0 0
  42144 = N 2 0
  42432 = N 0 0
  42432 = N 2 0
  42528 = N 0 0
  42528 = N 2 0
  42672 = N 1 120
  42816 = N 1 0
  42816 = N 2 0
  42912 = N 1 0
  42912 = N 2 0
  43200 = N 1 0
  43200 = N 3 0
  43296 = N 1 0
  43296 = N 3 0
  43584 = N 0 0
  43584 = N 2 0
  43680 = N 0 0
  43680 = N 2 0
  43968 = N 0 0
  43968 = N 2 0
  44064 = N 0 0
  44064 = N 2 0
  44208 = N 1 120
  44352 = N 1 0
  44352 = N 2 0
  44448 = N 1 0
  44448 = N 2 0
  44736 = N 1 0
  44736 = N 3 0
  44928 = N 0 0
  44928 = N 2 0
  45024 = N 0 0
  45024 = N 2 0
  45312 = N 0 0
  45312 = N 2 0
  45408 = N 0 0
  45408 = N 2 0
  45552 = N 1 120
  45696 = N 1 0
  45696 = N 2 0
  45696 = S 2 960
  45792 = N 1 0
  45792 = N 2 0
  46080 = N 1 0
  46080 = N 3 0
  46176 = N 1 0
  46176 = N 3 0
  46464 = N 0 0
  46464 = N 2 0
  46560 = N 0 0
  46560 = N 2 0
  46848 = N 0 0
  46848 = N 2 0
  46944 = N 0 0
  46944 = N 2 0
  47088 = N 1 120
  47232 = N 1 0
  47232 = N 2 0
  47328 = N 1 0
  47328 = N 2 0
  47616 = N 1 0
  47616 = N 3 0
  47808 = N 3 0
  47904 = N 3 0
  48000 = N 3 0
  48096 = N 3 0
  48192 = N 3 0
  48288 = N 3 0
  48384 = N 3 0
  48480 = N 3 0
  48576 = N 2 0
  48672 = N 3 0
  48768 = N 3 0
  48864 = N 3 0
  48960 = N 3 0
  49056 = N 3 0
  49152 = N 3 0
  49248 = N 3 0
  49344 = N 2 0
  49440 = N 3 0
  49536 = N 3 0
  49632 = N 3 0
  49728 = N 3 0
  49824 = N 3 0
  49920 = N 3 0
  50016 = N 3 0
  50112 = N 2 0
  50208 = N 3 0
  50304 = N 3 0
  50400 = N 3 0
  50496 = N 3 0
  50592 = N 3 0
  50688 = N 3 0
  50784 = N 3 0
  50880 = N 3 0
  50976 = N 3 0
  51072 = N 3 0
  51168 = N 3 0
  51264 = N 3 0
  51360 = N 3 0
  51456 = N 2 0
  51552 = N 3 0
  51648 = N 3 0
  51744 = N 3 0
  51840 = N 3 0
  51936 = N 3 0
  52032 = N 3 0
  52128 = N 3 0
  52224 = N 2 0
  52320 = N 3 0
  52416 = N 3 0
  52512 = N 3 0
  52608 = N 3 0
  52704 = N 3 0
  52800 = N 3 0
  52896 = N 3 0
  52992 = N 2 0
  53088 = N 3 0
  53184 = N 3 0
  53280 = N 3 0
  53376 = N 3 0
  53568 = N 0 192
  53568 = N 2 192
}
[EasySingle]
{
  1536 = N 0 0
  1632 = N 0 0
  1920 = N 0 0
  2016 = N 0 0
  2304 = N 1 0
  2400 = N 1 0
  2688 = N 2 0
  2784 = N 2 0
  3072 = N 0 0
  3168 = N 0 0
  3456 = N 0 0
  3552 = N 0 0
  3840 = N 1 0
  3840 = S 2 768
  3936 = N 1 0
  4224 = N 2 0
  4416 = N 0 0
  4512 = N 0 0
  5184 = N 0 0
  5280 = N 0 0
  5568 = N 2 0
  5760 = N 1 0
  5952 = N 0 0
  6048 = N 0 0
  6720 = N 0 0
  6816 = N 0 0
  7104 = N 2 0
  7296 = N 1 0
  7488 = N 0 0
  7584 = N 0 0
  8256 = N 2 0
  8352 = N 2 0
  8640 = N 2 0
  8832 = N 1 0
  9024 = N 1 0
  9120 = N 1 0
  9408 = N 2 0
  9504 = N 2 0
  9792 = N 0 0
  9888 = N 0 0
  10176 = N 1 1536
  13248 = N 1 0
  13248 = S 2 768
  13344 = N 1 0
  13440 = N 1 0
  13536 = N 1 0
  13632 = N 1 0
  13728 = N 1 0
  13824 = N 1 0
  14016 = N 0 0
  14112 = N 0 0
  14400 = N 0 0
  14496 = N 0 0
  14784 = N 1 0
  14880 = N 1 0
  15168 = N 2 0
  15264 = N 2 0
  15552 = N 0 0
  15648 = N 0 0
  15936 = N 0 0
  16032 = N 0 0
  16320 = N 1 0
  16416 = N 1 0
  16704 = N 2 0
  16896 = N 0 0
  16992 = N 0 0
  17664 = N 0 0
  17760 = N 0 0
  18048 = N 2 0
  18240 = N 1 0
  18432 = N 0 0
  18528 = N 0 0
  19200 = N 0 0
  19296 = N 0 0
  19584 = N 2 0
  19776 = N 1 0
  19968 = N 0 0
  20064 = N 0 0
  20736 = N 2 0
  20832 = N 2 0
  21120 = N 2 0
  21312 = N 1 0
  21504 = N 1 0
  21504 = S 2 1344
  21600 = N 1 0
  21888 = N 2 0
  21984 = N 2 0
  22272 = N 0 0
  22368 = N 0 0
  22656 = N 1 1536
  25728 = N 1 0
  25824 = N 1 0
  25920 = N 1 0
  26016 = N 1 0
  26112 = N 1 0
  26208 = N 1 0
  26304 = N 1 0
  26496 = N 0 0
  26592 = N 0 0
  26880 = N 0 0
  26976 = N 0 0
  27264 = N 1 0
  27360 = N 1 0
  27648 = N 2 0
  27744 = N 2 0
  28032 = N 0 0
  28128 = N 0 0
  28416 = N 0 0
  28512 = N 0 0
  28800 = N 1 0
  28896 = N 1 0
  29184 = N 2 0
  29376 = N 0 0
  29472 = N 0 0
  30144 = N 0 0
  30240 = N 0 0
  30528 = N 2 0
  30720 = N 1 0
  30912 = N 0 288
  30912 = E solo
  31296 = N 1 0
  31488 = N 0 171
  31680 = N 2 459
  32160 = N 0 0
  32256 = N 1 0
  32448 = N 1 171
  32736 = N 1 171
  33024 = N 2 0
  33216 = N 2 267
  33600 = N 0 0
  33792 = N 2 0
  33888 = S 2 1344
  33984 = N 1 0
  34176 = N 0 0
  34368 = N 2 0
  34560 = N 1 0
  34752 = N 0 0
  34944 = N 2 0
  35136 = N 1 1728
  35328 = E soloend
  42048 = N 0 0
  42144 = N 0 0
  42432 = N 0 0
  42528 = N 0 0
  42816 = N 1 0
  42912 = N 1 0
  43200 = N 2 0
  43296 = N 2 0
  43584 = N 0 0
  43680 = N 0 0
  43968 = N 0 0
  44064 = N 0 0
  44352 = N 1 0
  44448 = N 1 0
  44736 = N 2 0
  44928 = N 0 0
  45024 = N 0 0
  45312 = N 0 0
  45408 = N 0 0
  45696 = N 1 0
  45696 = S 2 960
  45792 = N 1 0
  46080 = N 2 0
  46176 = N 2 0
  46464 = N 0 0
  46560 = N 0 0
  46848 = N 0 0
  46944 = N 0 0
  47232 = N 1 0
  47328 = N 1 0
  47616 = N 2 0
  47808 = N 2 0
  48000 = N 2 0
  48192 = N 2 0
  48384 = N 2 0
  48576 = N 1 0
  48768 = N 2 0
  48960 = N 2 0
  49152 = N 2 0
  49344 = N 1 0
  49536 = N 2 0
  49728 = N 2 0
  49920 = N 2 0
  50112 = N 1 0
  50304 = N 2 0
  50496 = N 2 0
  50688 = N 2 0
  50880 = N 2 0
  51072 = N 2 0
  51264 = N 2 0
  51456 = N 1 0
  51648 = N 2 0
  51840 = N 2 0
  52032 = N 2 0
  52224 = N 1 0
  52416 = N 2 0
  52608 = N 2 0
  52800 = N 2 0
  52992 = N 1 0
  53184 = N 2 0
  53376 = N 2 0
  53568 = N 0 192
}